HDencode – Download Movies and TV Shows
1080p The Recruit 2003 1080p BluRay DTS x264-CtrlHD
Report

The Recruit 2003 1080p BluRay DTS x264-CtrlHD

The Recruit 2003 1080p BluRay DTS x264-CtrlHD

The Recruit    31 Jan 2003

PG-13 CrimeDramaThriller

6.6
IMDB: 6.6/10 115,434 votes

, , ,

2 nominations.

USA

59

Report error

The Recruit

Rating: 6.6/10 from 115,447 users

Genres: Action, Drama, Mystery, Romance, Thriller

plot

A brilliant young CIA trainee is asked by his mentor to help find a mole in the Agency.

INFO

The Recruit 2003 1080p BluRay DTS x264-CtrlHD

The.Recruit.2003.1080p.BluRay.DTS.x264-CtrlHD.mkv
Format                      : Matroska
Format version              : Version 1
File size                   : 8.75 GiB
Duration                    : 1h 55mn
Overall bit rate            : 10.9 Mbps
Encoded date                : UTC 2008-10-28 18:21:13
Writing application         : mkvmerge v2.4.0 (‘Fumbling Towards Ecstasy’) built on Oct 11 2008 20:13:15
Writing library             : libebml v0.7.7 + libmatroska v0.8.1

Video
ID                          : 1
Format                      : AVC
Format/Info                 : Advanced Video Codec
Format profile              : High@L4.1
Format settings, CABAC      : Yes
Format settings, ReFrames   : 5 frames
Codec ID                    : V_MPEG4/ISO/AVC
Duration                    : 1h 55mn
Bit rate                    : 9 372 Kbps
Width                       : 1 920 pixels
Height                      : 822 pixels
Display aspect ratio        : 2.35:1
Frame rate mode             : Constant
Frame rate                  : 23.976 fps
Color space                 : YUV
Chroma subsampling          : 4:2:0
Bit depth                   : 8 bits
Scan type                   : Progressive
Bits/(Pixel*Frame)          : 0.248
Stream size                 : 7.36 GiB (84%)
Writing library             : x264 core 65 r999M cc51047
Encoding settings           : cabac=1 / ref=5 / deblock=1:-3:-3 / analyse=0x3:0x113 / me=umh / subme=9 / psy_rd=1.0:1.0 / mixed_ref=1 / me_range=16 / chroma_me=1 / trellis=2 / 8x8dct=1 / cqm=0 / deadzone=21,11 / chroma_qp_offset=-4 / threads=6 / nr=0 / decimate=0 / mbaff=0 / bframes=3 / b_pyramid=1 / b_adapt=2 / b_bias=0 / direct=3 / wpredb=1 / keyint=250 / keyint_min=25 / scenecut=40(pre) / rc=2pass / bitrate=9372 / ratetol=1.0 / qcomp=0.60 / qpmin=10 / qpmax=51 / qpstep=4 / cplxblur=20.0 / qblur=0.5 / ip_ratio=1.40 / pb_ratio=1.30 / aq=1:1.00
Language                    : English
Default                     : Yes
Forced                      : No

Audio
ID                          : 2
Format                      : DTS
Format/Info                 : Digital Theater Systems
Mode                        : 16
Format settings, Endianness : Big
Codec ID                    : A_DTS
Duration                    : 1h 55mn
Bit rate mode               : Constant
Bit rate                    : 1 510 Kbps
Channel(s)                  : 6 channels
Channel positions           : Front: L C R, Side: L R, LFE
Sampling rate               : 48.0 KHz
Bit depth                   : 24 bits
Compression mode            : Lossy
Stream size                 : 1.21 GiB (14%)
Title                       : DTS 5.1 @ 1536kbps
Language                    : English
Default                     : Yes
Forced                      : No

Text
ID                          : 3
Format                      : UTF-8
Codec ID                    : S_TEXT/UTF8
Codec ID/Info               : UTF-8 Plain Text
Language                    : English
Default                     : Yes
Forced                      : No

===========================================================
Download Link     |   Uploaded.net    |  Password: HDencode


Please enter the code below to access the links.


Click here to watch how to download movies


Upload on Youtube

No links available
No downloads available

Leave a Reply

Be the First to Comment!

avatar
wpDiscuz

uploaded

Support

Related movies