HDEncode – Download Movies and TV Shows
720p The Night Of 2016 720p BluRay DD5.1 x264-DON
Report

The Night Of 2016 720p BluRay DD5.1 x264-DON

The Night Of 2016 720p BluRay DD5.1 x264-DON

The Night Of    

8.7

, , ,

N/A

USA

204

Report

The Night Of

Rating: 8.7/10 from 50,201 users

Genres: Crime, Drama

plot

After a night of partying with a female stranger, a man wakes up to find her stabbed to death and is charged with her murder.

INFO

The Night Of 2016 720p BluRay DD5.1 x264-DON

SOURCE………: The Night Of 2016 1080p Blu-ray AVC DTS-HD MA 5.1-COASTER
ENCODER……..: DON

Source – DON – Scene – WEB-DL – HDTV
The Night Of 2016 720p BluRay DD5.1 x264-DON screenshots The Night Of 2016 720p BluRay DD5.1 x264-DON screenshots The Night Of 2016 720p BluRay DD5.1 x264-DON screenshots The Night Of 2016 720p BluRay DD5.1 x264-DON screenshots The Night Of 2016 720p BluRay DD5.1 x264-DON screenshots
The Night Of 2016 720p BluRay DD5.1 x264-DON screenshots The Night Of 2016 720p BluRay DD5.1 x264-DON screenshots The Night Of 2016 720p BluRay DD5.1 x264-DON screenshots The Night Of 2016 720p BluRay DD5.1 x264-DON screenshots The Night Of 2016 720p BluRay DD5.1 x264-DON screenshots
The Night Of 2016 720p BluRay DD5.1 x264-DON screenshots The Night Of 2016 720p BluRay DD5.1 x264-DON screenshots The Night Of 2016 720p BluRay DD5.1 x264-DON screenshots The Night Of 2016 720p BluRay DD5.1 x264-DON screenshots The Night Of 2016 720p BluRay DD5.1 x264-DON screenshots

 

Quote

General
Unique ID                                : 245160314614927824258511634080651183079 (0xB87028BB61E4FB13A048BAE084FA83E7)
Complete name                            : The.Night.Of.2016.720p.BluRay.DD5.1.×264-DON/The.Night.Of.2016.Part.1.720p.BluRay.DD5.1.×264-DON.mkv
Format                                   : Matroska
Format version                           : Version 4 / Version 2
File size                                : 3.10 GiB
Duration                                 : 1h 18mn
Overall bit rate                         : 5 641 Kbps
Encoded date                             : UTC 2016-10-30 10:01:28
Writing application                      : mkvmerge v9.5.0 (‘Quiet Fire’) 32bit
Writing library                          : libebml v1.3.4 + libmatroska v1.4.5

Video
ID                                       : 1
Format                                   : AVC
Format/Info                              : Advanced Video Codec
Format profile                           : [email protected]
Format settings, CABAC                   : Yes
Format settings, ReFrames                : 9 frames
Codec ID                                 : V_MPEG4/ISO/AVC
Duration                                 : 1h 18mn
Bit rate                                 : 5 000 Kbps
Width                                    : 1 280 pixels
Height                                   : 720 pixels
Display aspect ratio                     : 16:9
Frame rate mode                          : Constant
Frame rate                               : 23.976 fps
Color space                              : YUV
Chroma subsampling                       : 4:2:0
Bit depth                                : 8 bits
Scan type                                : Progressive
Bits/(Pixel*Frame)                       : 0.226
Stream size                              : 2.69 GiB (87%)
Writing library                          : x264 core 148 r2721kMod 72d53ab
Encoding settings                        : cabac=1 / ref=9 / deblock=1:-3:-3 / analyse=0x3:0x113 / me=umh / subme=11 / psy=1 / fade_compensate=0.00 / psy_rd=1.00:0.00 / mixed_ref=1 / me_range=32 / chroma_me=1 / trellis=2 / 8x8dct=1 / cqm=0 / deadzone=21,11 / fast_pskip=0 / chroma_qp_offset=-3 / threads=12 / lookahead_threads=2 / sliced_threads=0 / nr=0 / decimate=1 / interlaced=0 / bluray_compat=0 / constrained_intra=0 / fgo=0 / bframes=9 / b_pyramid=2 / b_adapt=2 / b_bias=0 / direct=3 / weightb=1 / open_gop=0 / weightp=2 / keyint=230 / keyint_min=23 / scenecut=40 / intra_refresh=0 / rc_lookahead=40 / rc=2pass / mbtree=0 / bitrate=5000 / ratetol=1.0 / qcomp=0.65 / qpmin=0 / qpmax=69 / qpstep=4 / cplxblur=20.0 / qblur=0.5 / vbv_maxrate=50000 / vbv_bufsize=62500 / nal_hrd=none / filler=0 / ip_ratio=1.40 / pb_ratio=1.30 / aq=3:0.85
Language                                 : English
Default                                  : Yes
Forced                                   : No

Audio
ID                                       : 2
Format                                   : AC-3
Format/Info                              : Audio Coding 3
Mode extension                           : CM (complete main)
Format settings, Endianness              : Big
Codec ID                                 : A_AC3
Duration                                 : 1h 18mn
Bit rate mode                            : Constant
Bit rate                                 : 640 Kbps
Channel(s)                               : 6 channels
Channel positions                        : Front: L C R, Side: L R, LFE
Sampling rate                            : 48.0 KHz
Bit depth                                : 16 bits
Compression mode                         : Lossy
Stream size                              : 360 MiB (11%)
Language                                 : English
Default                                  : Yes
Forced                                   : No

Text #1
ID                                       : 3
Format                                   : UTF-8
Codec ID                                 : S_TEXT/UTF8
Codec ID/Info                            : UTF-8 Plain Text
Title                                    : Forced
Language                                 : English
Default                                  : Yes
Forced                                   : Yes

Text #2
ID                                       : 4
Format                                   : UTF-8
Codec ID                                 : S_TEXT/UTF8
Codec ID/Info                            : UTF-8 Plain Text
Language                                 : English
Default                                  : No
Forced                                   : No

Text #3
ID                                       : 5
Format                                   : UTF-8
Codec ID                                 : S_TEXT/UTF8
Codec ID/Info                            : UTF-8 Plain Text
Title                                    : SDH
Language                                 : English
Default                                  : No
Forced                                   : No

Menu
00:00:00.000                             : en:00:00:00.000
00:01:30.090                             : en:00:01:30.090
00:06:21.590                             : en:00:06:21.590
00:14:54.102                             : en:00:14:54.102
00:25:22.104                             : en:00:25:22.104
00:33:50.862                             : en:00:33:50.862
00:42:49.317                             : en:00:42:49.317
00:51:00.307                             : en:00:51:00.307
01:01:57.130                             : en:01:01:57.130
01:10:16.546                             : en:01:10:16.546
01:17:33.482                             : en:01:17:33.482

 


Download Link     |   Uploaded.net    |  Password: HDencode      (case sensitive)


Please enter the code below to access the links.


No data

Leave a Reply

Be the First to Comment!

avatar
wpDiscuz

uploaded

Support