HDEncode – Download Movies and TV Shows

Hidden Figures 2016 DVDSCR-P2P

Hidden Figures 2016 DVDSCR-P2P

93

Report

Hidden Figures

Rating: 7.9/10 from 3,892 users

Genres: Drama

IMDB Link: Hidden Figures

plot

Based on a true story. A team of African-American women provide NASA with important mathematical data needed to launch the program’s first successful space missions.

INFO

Hidden Figures 2016 DVDSCR-P2P

Size: 813.32 MB

Hidden Figures 2016 DVDSCR-P2P

IMDB:
Complete name : Hidden Figures 2016.mp4
Format : MPEG-4
Format profile : Base Media / Version 2
Codec ID : mp42 (isom/iso2/avc1/mp41)
File size : 813 MiB
Duration : 2 h 6 min
Overall bit rate mode : Variable
Overall bit rate : 897 kb/s
Movie name : Title 2
Performer : 7aa568af-c4a9-446
Encoded date : UTC 2017-01-12 07:21:30
Tagged date : UTC 2017-01-12 07:21:30
Writing application : HandBrake 0.10.5 2016021100
ID : 1
Format : AVC
Format/Info : Advanced Video Codec
Format profile : [email protected]
Format settings, CABAC : Yes
Format settings, ReFrames : 4 frames
Codec ID : avc1
Codec ID/Info : Advanced Video Coding
Duration : 2 h 6 min
Bit rate : 768 kb/s
Width : 720 pixels
Height : 356 pixels
Display aspect ratio : 2.40:1
Frame rate mode : Variable
Frame rate : 28.830 FPS
Minimum frame rate : 28.828 FPS
Maximum frame rate : 28.837 FPS
Color space : YUV
Chroma subsampling : 4:2:0
Bit depth : 8 bits
Scan type : Progressive
Bits/(Pixel*Frame) : 0.104
Stream size : 693 MiB (85%)
Writing library : x264 core 142 r2491 24e4fed
ID : 2
Format : AAC
Format/Info : Advanced Audio Codec
Format profile : LC
Codec ID : 40
Duration : 2 h 6 min
Bit rate mode : Variable
Bit rate : 125 kb/s
Channel(s) : 2 channels
Channel positions : Front: L R
Sampling rate : 44.1 kHz
Frame rate : 43.066 FPS (1024 spf)
Compression mode : Lossy
Stream size : 114 MiB (14%)
Title : Stereo / Stereo
Default : Yes
Alternate group : 1
Encoded date : UTC 2017-01-12 07:21:30
Tagged date : UTC 2017-01-12 07:21:30

Based on a true story. A team of African-American women provide NASA with important mathematical data needed to launch the program’s first successful space missions.


Download Link     |   Uploaded.net    |  Password: HDencode


Please enter the code below to access the links.



Leave a Reply

Be the First to Comment!

avatar
wpDiscuz

uploaded

Support