HDEncode – Download Movies and TV Shows
720p Emmanuelle 1974 720p BluRay DTS 3Audio x264-HDCLUB
Report

Emmanuelle 1974 720p BluRay DTS 3Audio x264-HDCLUB

Emmanuelle 1974 720p BluRay DTS 3Audio x264-HDCLUB

Emmanuelle    

5.3

, , ,

N/A

France

135

Report

Emmanuelle

Rating: 5.3/10 from 7,589 users

Genres: Drama

plot

The wife of a French diplomat in Bangkok, Emmanuelle embarks on a voyage of sexual discovery.

INFO

Emmanuelle 1974 720p BluRay DTS 3Audio x264-HDCLUB

Emmanuelle 1974 720p BluRay DTS 3Audio x264-HDCLUB screenshots

 

Quote

General
Unique ID : 188566757544594751502175788243606941856 (0x8DDCA2F0D1CC23AAA36F30940F59B0A0)
Complete name : /media/sdl1/home/nethd/private/rtorrent/data/Emmanuelle.1974.720p.BluRay.DTS.2xRus.Eng.Fr.HDCLUB.mkv
Format : Matroska
Format version : Version 2
File size : 7.56 GiB
Duration : 1h 34mn
Overall bit rate : 11.5 Mbps
Movie name : Emmanuelle (1974) – Release for HDClub
Encoded date : UTC 2010-03-04 03:40:27
Writing application : mkvmerge v2.9.8 (‘C’est le bon’) built on Aug 13 2009 12:49:06
Writing library : libebml v0.7.7 + libmatroska v0.8.1

Video
ID : 1
Format : AVC
Format/Info : Advanced Video Codec
Format profile : High@L4.1
Format settings, CABAC : Yes
Format settings, ReFrames : 9 frames
Codec ID : V_MPEG4/ISO/AVC
Duration : 1h 34mn
Bit rate : 8 938 Kbps
Width : 1 176 pixels
Height : 720 pixels
Display aspect ratio : 16:10
Frame rate mode : Constant
Frame rate : 24.000 fps
Color space : YUV
Chroma subsampling : 4:2:0
Bit depth : 8 bits
Scan type : Progressive
Bits/(Pixel*Frame) : 0.440
Stream size : 5.73 GiB (76%)
Title : Release for HDClub
Writing library : x264 core 75 r1259M dd026f2
Encoding settings : cabac=1 / ref=9 / deblock=1:-3:-3 / analyse=0x3:0x113 / me=umh / subme=9 / psy=1 / psy_rd=1.0:0.0 / mixed_ref=1 / me_range=32 / chroma_me=1 / trellis=2 / 8x8dct=1 / cqm=0 / deadzone=21,11 / chroma_qp_offset=-2 / threads=12 / nr=0 / decimate=1 / mbaff=0 / bframes=6 / b_pyramid=0 / b_adapt=2 / b_bias=0 / direct=3 / wpredb=1 / keyint=250 / keyint_min=25 / scenecut=40 / rc_lookahead=0 / rc=2pass / mbtree=0 / bitrate=8938 / ratetol=1.0 / qcomp=0.60 / qpmin=10 / qpmax=51 / qpstep=4 / cplxblur=20.0 / qblur=0.5 / vbv_maxrate=50000 / vbv_bufsize=50000 / ip_ratio=1.40 / pb_ratio=1.30 / aq=1:0.80 / pulldown=0 / nal_hrd=0
Language : French
Default : Yes
Forced : No

Audio #1
ID : 2
Format : AC-3
Format/Info : Audio Coding 3
Mode extension : CM (complete main)
Format settings, Endianness : Big
Codec ID : A_AC3
Duration : 1h 34mn
Bit rate mode : Constant
Bit rate : 256 Kbps
Channel(s) : 2 channels
Channel positions : Front: L R
Sampling rate : 48.0 KHz
Bit depth : 16 bits
Compression mode : Lossy
Stream size : 173 MiB (2%)
Title : AC3 2.0 256 kbps Двухголосый закадровый, Twister
Language : Russian
Default : Yes
Forced : No

Audio #2
ID : 3
Format : DTS
Format/Info : Digital Theater Systems
Mode : 16
Format settings, Endianness : Big
Codec ID : A_DTS
Duration : 1h 34mn
Bit rate mode : Constant
Bit rate : 754 Kbps
Channel(s) : 2 channels
Channel positions : Front: L R
Sampling rate : 48.0 KHz
Bit depth : 24 bits
Compression mode : Lossy
Stream size : 508 MiB (7%)
Title : DTS 2.0 768 kbps Одноголосый закадровый, Ю.Живов
Language : Russian
Default : No
Forced : No

Audio #3
ID : 4
Format : DTS
Format/Info : Digital Theater Systems
Mode : 16
Format settings, Endianness : Big
Codec ID : A_DTS
Duration : 1h 34mn
Bit rate mode : Constant
Bit rate : 768 Kbps
Channel(s) : 2 channels
Channel positions : Front: L R
Sampling rate : 48.0 KHz
Bit depth : 16 bits
Compression mode : Lossy
Stream size : 518 MiB (7%)
Title : DTS 2.0 768 kbps
Language : English
Default : No
Forced : No

Audio #4
ID : 5
Format : DTS
Format/Info : Digital Theater Systems
Mode : 16
Format settings, Endianness : Big
Codec ID : A_DTS
Duration : 1h 34mn
Bit rate mode : Constant
Bit rate : 768 Kbps
Channel(s) : 2 channels
Channel positions : Front: L R
Sampling rate : 48.0 KHz
Bit depth : 16 bits
Compression mode : Lossy
Stream size : 518 MiB (7%)
Title : DTS 2.0 768 kbps
Language : French
Default : No
Forced : No

Text #1
ID : 6
Format : UTF-8
Codec ID : S_TEXT/UTF8
Codec ID/Info : UTF-8 Plain Text
Language : Russian
Default : No
Forced : No

Text #2
ID : 7
Format : UTF-8
Codec ID : S_TEXT/UTF8
Codec ID/Info : UTF-8 Plain Text
Language : English
Default : No
Forced : No

 

Emmanuelle 1974 720p BluRay DTS 3Audio x264-HDCLUB screenshots Emmanuelle 1974 720p BluRay DTS 3Audio x264-HDCLUB screenshots Emmanuelle 1974 720p BluRay DTS 3Audio x264-HDCLUB screenshots Emmanuelle 1974 720p BluRay DTS 3Audio x264-HDCLUB screenshots Emmanuelle 1974 720p BluRay DTS 3Audio x264-HDCLUB screenshots Emmanuelle 1974 720p BluRay DTS 3Audio x264-HDCLUB screenshots Emmanuelle 1974 720p BluRay DTS 3Audio x264-HDCLUB screenshots Emmanuelle 1974 720p BluRay DTS 3Audio x264-HDCLUB screenshots Emmanuelle 1974 720p BluRay DTS 3Audio x264-HDCLUB screenshots Emmanuelle 1974 720p BluRay DTS 3Audio x264-HDCLUB screenshots Emmanuelle 1974 720p BluRay DTS 3Audio x264-HDCLUB screenshots Emmanuelle 1974 720p BluRay DTS 3Audio x264-HDCLUB screenshots

 


Download Link     |   Uploaded.net    |  Password: HDencode      (case sensitive)


Please enter the code below to access the links.



Upload on Youtube

Upload on Youtube

Leave a Reply

Be the First to Comment!

avatar
wpDiscuz

uploaded

Support