HDEncode – Download Movies and TV Shows
720p Apt Pupil 1998 720p BluRay DTS x264-CRiSC
Report

Apt Pupil 1998 720p BluRay DTS x264-CRiSC

Apt Pupil 1998 720p BluRay DTS x264-CRiSC

Vote

62

Report error

Apt Pupil

Rating: 6.7/10 from 29,290 users

Genres: Crime, Drama, Thriller

plot

A boy blackmails his neighbour after suspecting him to be a Nazi war criminal.

INFO

Apt Pupil 1998 720p BluRay DTS x264-CRiSC

Apt Pupil 1998 720p BluRay DTS x264-CRiSC

GENRE:
Drama | Thriller
                                                                 
PLOT:
A boy blackmails his neighbour after suspecting him to be a Nazi war criminal.

IMDb:

SOURCE:
Apt Pupil 1998 1080p Blu-ray AVC DTS-HD MA 5.1

RELEASE.iNFO:
FiLE.NAME…….: Apt.Pupil.1998.720p.BluRay.DTS.x264-CRiSC.mkv
RELEASE.DATE….: 17.07.2011
THEATRE.DATE….: 09.09.1998
RUNTiME………: 01:51:10
SiZE…………: 5.1 GB
ViDEO.CODEC…..: x264 (L4.1, DXVA)
FRAMERATE…….: 23.976                    
BiTRATE………: 5062  kbps                                      
RESOLUTiON……: 1280×532
AUDiO………..: English DTS 5.1 1509  kbps (-Core)
CHAPTERS……..: Yes
SUBTiTLES…….: English

SCREENSHOTS:
Apt Pupil 1998 720p BluRay DTS x264-CRiSC  screenshots Apt Pupil 1998 720p BluRay DTS x264-CRiSC  screenshots Apt Pupil 1998 720p BluRay DTS x264-CRiSC  screenshots 

x264.iNFO:
x264 [info]: profile High, level 4.1
x264 [info]: frame I:1185  Avg QP:15.39  size: 85589
x264 [info]: frame P:29701 Avg QP:16.62  size: 47419
x264 [info]: frame B:129050 Avg QP:18.70  size: 21006
x264 [info]: consecutive B-frames:  1.8%  0.9%  2.6% 10.6% 15.3% 45.4%  9.7%  5.9%  3.0%  1.7%  1.0%  1.0%  0.7%  0.4%
encoded 159936 frames, 2.73 fps, 5061.70 kb/s

Quote

General
Unique ID : 177516204391824528582784661623921149627 (0x858C609B01C5E007A302FCE83A0B86BB)
Complete name : /downloads/Apt.Pupil.1998.720p.BluRay.DTS.x264-CRiSC/Apt.Pupil.1998.720p.BluRay.DTS.x264-CRiSC.mkv
Format : Matroska
Format version : Version 2
File size : 5.10 GiB
Duration : 1h 51mn
Overall bit rate : 6 573 Kbps
Encoded date : UTC 2011-07-17 11:42:45
Writing application : mkvmerge v4.9.1 (‘Ich will’) built on Jul 11 2011 23:53:15
Writing library : libebml v1.2.1 + libmatroska v1.1.1

Video
ID : 1
Format : AVC
Format/Info : Advanced Video Codec
Format profile : High@L4.1
Format settings, CABAC : Yes
Format settings, ReFrames : 11 frames
Codec ID : V_MPEG4/ISO/AVC
Duration : 1h 51mn
Bit rate : 4 933 Kbps
Width : 1 280 pixels
Height : 532 pixels
Display aspect ratio : 2.40:1
Frame rate : 23.976 fps
Color space : YUV
Chroma subsampling : 4:2:0
Bit depth : 8 bits
Scan type : Progressive
Bits/(Pixel*Frame) : 0.302
Stream size : 3.83 GiB (75%)
Title : Apt Pupil (1998)
Writing library : x264 core 116 r2019 9cc407d
Encoding settings : cabac=1 / ref=11 / deblock=1:-3:-3 / analyse=0x3:0x133 / me=umh / subme=10 / psy=1 / psy_rd=1.10:0.00 / mixed_ref=1 / me_range=64 / chroma_me=1 / trellis=2 / 8x8dct=1 / cqm=0 / deadzone=21,11 / fast_pskip=0 / chroma_qp_offset=-2 / threads=12 / sliced_threads=0 / nr=0 / decimate=0 / interlaced=0 / bluray_compat=0 / constrained_intra=0 / bframes=13 / b_pyramid=2 / b_adapt=2 / b_bias=0 / direct=1 / weightb=1 / open_gop=0 / weightp=2 / keyint=250 / keyint_min=23 / scenecut=40 / intra_refresh=0 / rc_lookahead=40 / rc=crf / mbtree=0 / crf=17.5 / qcomp=0.70 / qpmin=0 / qpmax=69 / qpstep=4 / vbv_maxrate=50000 / vbv_bufsize=62500 / crf_max=0.0 / nal_hrd=none / ip_ratio=1.40 / pb_ratio=1.30 / aq=1:0.80
Language : English
Color primaries : BT.709-5, BT.1361, IEC 61966-2-4, SMPTE RP177
Transfer characteristics : BT.709-5, BT.1361
Matrix coefficients : BT.709-5, BT.1361, IEC 61966-2-4 709, SMPTE RP177

Audio
ID : 2
Format : DTS
Format/Info : Digital Theater Systems
Codec ID : A_DTS
Duration : 1h 51mn
Bit rate mode : Constant
Bit rate : 1 510 Kbps
Channel(s) : 6 channels
Channel positions : Front: L C R, Side: L R, LFE
Sampling rate : 48.0 KHz
Bit depth : 16 bits
Compression mode : Lossy
Stream size : 1.17 GiB (23%)
Title : DTS 5.1 1509 kbps
Language : English

Text
ID : 3
Format : UTF-8
Codec ID : S_TEXT/UTF8
Codec ID/Info : UTF-8 Plain Text
Language : English

Menu
00:00:00.000 : en:00:00:00.000
00:06:52.203 : en:00:06:52.203
00:14:38.836 : en:00:14:38.836
00:18:56.844 : en:00:18:56.844
00:29:35.607 : en:00:29:35.607
00:35:47.354 : en:00:35:47.354
00:40:40.897 : en:00:40:40.897
00:48:33.369 : en:00:48:33.369
00:56:15.789 : en:00:56:15.789
01:05:46.734 : en:01:05:46.734
01:09:00.928 : en:01:09:00.928
01:15:10.756 : en:01:15:10.756
01:22:39.997 : en:01:22:39.997
01:29:48.717 : en:01:29:48.717
01:37:08.239 : en:01:37:08.239
01:42:44.367 : en:01:42:44.367

===========================================================
Download Link     |   Uploaded.net    |  Password: HDencode      (case sensitive)


Please enter the code below to access the links.


Click here to watch how to download movies


No links available
No downloads available

Leave a Reply

Be the First to Comment!

avatar
wpDiscuz

uploaded

Support

Related movies